Kaleida 99 Luftballons Lyrics

Download daftar kumpulan HQ audio MP3 dan HD Video 3GP MP4 dari Kaleida dengan mudah dan gratis!. Nena - 99 Luftballons Lyrics & Traduction. 52 MB • 2K plays. 99 Luftballons - Nena 6. com) with the same terrible lyrics, and it's just. It often indicates a user profile. FilmWonk rating: 7. KALEIDA’s sparse rendition of NENA’s ‘99 Luftballons’ earned kudos for being very different and was included in the soundtrack of the Cold War spy drama ‘Atomic Blonde’, hauntingly highlighting the currently relevant nuclear apocalypse warning in the lyric. Dann singe ich ein Lied fuer Dich D Em G A Von 99 Luftballons Auf ihrem Weg zum Horizont. 99 LUFTBALLONS: Letra, curiosidades, vídeo musical, canciones del mismo disco // Hast du etwas Zeit für mich / Dann singe ich ein Lied für dich / Von neundneunzig Luftballons / Auf ihrem Weg zum Horizont / Denkst du vielleicht grad an mich / Dann singe ich ein Lied für dich / Von neundneunzig Luftballons / Und, dass so. Listen and Download 99 Luftballons MP3 Download MusicPleer song, click on [DOWNLOAD] Button & select 320kbps High Quality file and download MP3 music for free on your smart phone or PC. The Domestics. " A sparse and minimalist take on the German original, Kaleida's take on the karaoke classic is not only a terrific cover, but has also been featured the action film Atomic Blonde. Hast Du etwas Zeit für mich? / Singe ich ein Lied für Dich / Von 99 Luftballons / Auf ihrem Weg zum Horizont / Denkst du vielleicht grad an mich?. Лингво-лаборатория Амальгама: перевод текста песни 99 Luftballons группы Nena Для корректной работы сайта необходимо включить Javascript в настройках браузера. Division 5. Kaleida - 99 Luftballons (Atomic Blonde Soundtrack) Source: youtube. 1 Reprises 2. Results 99 luftballons kaleida from dailymotion at herofastermp3. 99 Luftballons Lyrics. Das Stück war einer der erfolgreichsten Titel der Neuen Deutschen Welle und auch international einer der erfolgreichsten Popsongs in deutscher Sprache. Лингво-лаборатория Амальгама: перевод текста песни 99 Luftballons группы Nena Для корректной работы сайта необходимо включить Javascript в настройках браузера. Choose from several source of music 99 LUFTBALLONS Lyrics- Nena size:5. The Domestics. People love Nena's post-punk pop tune "99 Luftballons" but few are aware that it is a German anti-war protest song. 5 out of 10 Show notes: Music for this episode is the tracks " Major Tom (Völlig Losgelöst) " by Peter Schilling , and a new, dour version of " 99 Luftballons " by Kaleida , from the film's soundtrack. Şi tot germane, Der Komissar, piesa lui Falco, dar în varianta trupei engleze After the Fire, care au avut un hit cu ea în America în 1983 şi piesa Nena, 99 Luftballons, cu ea şi în super-interpretarea Kaleida. Kaleida – 99 Luftballons. 1 Reprises 2. And then there are songs – like the album’s title track and “Free” – that embrace a warmer, more organic sound, benefitting greatly from pianos and strings. 9 % Test CRC 5BA7DEAD Copy CRC 5BA7DEAD Accurately ripped (confidence 4) [55617199] (AR v2) Copy OK Track 5 Filename D:\My Music\barca008\Various Artists - Atomic Blonde (Original Motion Picture Soundtrack)\05 - 99 Luftballons. House Of Pulp 10. Best Dance Albums 2019 MP3 & Lyrics Download. (not for release label use! company owned by Sony Corporation of America from 1991-2004; operated worldwide except in JP) (1985) (track 14). Nena - 99 Red Balloons. Band To Mp3 MP3 & Lyrics Download. We at LetsSingIt do our best to provide all songs with lyrics. Kaleida - 99 Luftballons. Lyrics to '99 Luftballons' by Kaleida. 99 Luftballons Lyrics. Tear the Roots really is a magnificent debut. " Ce premier album contient également une reprise du '99 Luftballons' de Nena, enregistré pour le thriller d'espionnage Atomic Blonde, avec Charlize Theron dans le rôle-titre. «99 Luftballons» (en español: '99 globos') es una canción de protesta de 1983 de la banda alemana Nena, publicada en su disco homónimo Nena. Znajdź teksty piosenki oraz tłumaczenia piosenek i zobacz teledyski swoich ulubionych utworów. Kaleida - Tear The Roots - 2017 (320 kbps) 0. ticro record new arrival list blog 新譜・中古のアナログ・レコード販売 shop チクロマーケットの本日の新入荷リストです。. Nena - 99 Luftballons George Michael - Father Figure After the Fire - Der Kommissar Siouxsie & The Banshees - Cities In Dust Re-Flex - The Politics of Dancing Marilyn Manson & Tyler Bates - Stigmata Tyler Bates - Demonstration A Flock of Seagulls - I Ran (So Far Away) Til Tuesday - 99 Luftballons Kaleida - Voices Carry The Clash - London Calling. co/SMdUpFxayT". Includes Album Cover, Release Year, and User Reviews. "Causality is the relation between an event (the cause) and a second event (the effect), where the first event is understood to be responsible for the second. Music for this episode is the tracks “Major Tom (Völlig Losgelöst)” by Peter Schilling, and a new, dour version of “99 Luftballons” by Kaleida, from the film’s soundtrack. Balloons Soar, Nena Fades "99 Luftballons" was an antiwar protest song written by the band's guitarist Carlo Karges. Nena - 99 Red Balloons (english) - tekst piosenki, tłumaczenie piosenki i teledysk. Baixar música Kaleida - krafta Kaleida, ouvir Kaleida, baixar Kaleida, Baixe milhões de musicas no krafta. Kaleida 99 Luftballons Atomic Blonde Soundtrack mp3 sound. ” Between Wood’s vocals and the absence of the funky keyboards, this was a darker “99 Luftballons,” much less quirky than the original. Kaleida - Tear The Roots • 8. Tear The Roots London duo Kaleida return with their debut album 'Tear The Roots' on Lex. Stream Nena - 99 Luftballons (ORIGINAL) by DJLantern from desktop or your mobile device. Read or print original 99 Luftballons lyrics 2019 updated! Hast du etwas Zeit fur mich dann singe ich ein Lied fur dich von 99 Luftballons. “99 Luftballons” (99 air balloons) is an anti-war protest song by the German band Nena from their 1983 self-titled album. В песне поётся о 99 воздушных шариках, которые по ошибке приняли за НЛО, из-за чего один генерал отправил на перехват 99 лётчиков-истребителей, «каждый из которых решителен, как капитан Кирк». Mp3skull Kaleida mp3 song download in musicpleer and skull pleer on high quality 320kbps instrumental remix sons. 《極凍之城》拍一個殘酷的柏林大染缸、一群自求多福的苦命情報員,有人送了性命有人賣了靈魂,只剩羅琳一個人咬緊牙關苦苦支撐,撐著冷酷外表拖著脆弱身軀,也要試著守護心裡那一點點純善角落。. 20 MB , duration 3 minutes and 57 seconds and bitrate is 192 Kbps. 99 Luftballons 11. Лингво-лаборатория Амальгама: перевод текста песни 99 Luftballons группы Nena Для корректной работы сайта необходимо включить Javascript в настройках браузера. Traduction de la chanson 99 Luftballons de Nena : {99 Ballons} 99 Ballons As-tu un peu de temps pour moi ? Alors je te chanterai. Смотреть NENA 99 RED BALLOONS [Official Video] Скачать MP4 480p. And then there are songs – like the album’s title track and “Free” – that embrace a warmer, more organic sound, benefitting greatly from pianos and strings. Kaleida's album made it high on my 2017 top list, electronic. Kaleida - 99 Luftballons (Atomic Blonde Soundtrack NENA - 99 LUFTBALLONS 🔥 English translation, meaning & lyrics explained by a native German!. London duo Kaleida released their debut album last year, and one of the tracks that got the ball rolling for this album. Watch the video for 99 Luftballons from Kaleida's Tear the Roots for free, and see the artwork, lyrics and similar artists. Ooh, we’ve gone full circle back to assassin movies – this one being so into 99 Luftballons that it not only featured Nena’s ace original, but also this version by English duo Kaleida which – speaking of assassination – goes the modern “let’s suck every possible breath of life out of it” soundtrack approach that Gary Jules. Unfortunately we don't have the lyrics for the song "Meter" yet. Kaleida 99 Luftballons Atomic Blonde Soundtrack mp3 sound free add to library for offline listening. 99 Luftballons 11. And then there are songs – like the album’s title track and “Free” – that embrace a warmer, more organic sound, benefitting greatly from pianos and strings. Updates in bold. Hast Du etwas Zeit für mich? Singe ich ein Lied für Dich Von 99 Luftballons Auf ihrem Weg. The only three I didn't predict even as spoilers were score, visual effects and live. Kaleida - Think Lyrics. Nena 99 Luftballons new version 2009 with lyrics. 79MB - duration: Kaleida - 99. La letra es una crítica a la situación política imperante durante la Guerra Fría. Watch the video for 99 Luftballons from Kaleida's Tear the Roots for free, and see the artwork, lyrics and similar artists. Lyrics to '99 Luftballons (English Translation)' by Nena. -99 Luftballons-Hast du etwas Zeit für mich Dann singe ich ein Lied für dich Von 99 Luftballons Auf ihrem weg zum Horizont Denkst du vielleicht gerad' an mich Dann singe ich ein Lied für dich Von 99 Luftballons Und das sowas von sowas kommt 99 Luftballons Auf ihrem weg zum Horizont Hielt man für. House Of Pulp 10. People love Nena's post-punk pop tune "99 Luftballons" but few are aware that it is a German anti-war protest song. 95 MB • 64 plays. Think Lyrics Power Lyrics Tear The Roots* Lyrics 99 Luftballons* Lyrics House Of Pulp* Lyrics Free* Lyrics Meter* Lyrics Division* Lyrics All The Pretty Pieces* Lyrics Echo Saw You Lyrics Home K Kaleida Coco*. -99 Luftballons-Hast du etwas Zeit für mich Dann singe ich ein Lied für dich Von 99 Luftballons Auf ihrem weg zum Horizont Denkst du vielleicht gerad' an mich Dann singe ich ein Lied für dich Von 99 Luftballons Und das sowas von sowas kommt 99 Luftballons Auf ihrem weg zum Horizont Hielt man für. Justin Bieber - Baby Arvind Ke Maya Rani Re Geeta Zaildar Mr Biggs Busted Lyrics Kaleida 99 Luftballons Atomic Blonde Soundtrack Main Nai Kalla Mere. Nena - 99 Luftballons (letra en alemán y traducción al español) Supongo que será por deformación profesional por haber cursado Historia, pero el presente siempre lo analizo en función de lo ocurrido en el pasado tratando así de anticipar en lo sucedido lo que nos pueda acontecer en el futuro. Der Text stammt von Carlo Karges, die Musik schrieb Uwe Fahrenkrog-Petersen. Lyrics to '99 Luftballons' by Kaleida. 52 MB • 2K plays. Nena - 99 Luftballons Lyrics & Traduction. I think Florence's lyrics are much more thought-filled, though, but that doesn't take one bit from this duo's music, which is a very wonderful find. Sony Music Entertainment Inc. Top Kaleida lyrics. Amy Lee Grant (born November 25, 1960) is an American singer, songwriter, musician, author and media personality. 2018, Starring Tyler Hoechlin as Mark West, Kate Bosworth as Nina West, Lance Reddick as Nathan Wood, Sonoya Mizuno as Betsy, Dana Gourrier as Wanda, Jacinte Blankenship as Theresa Wood, Thomas Francis Murphy as Plowboy Jim, David Dastmalchian as Willy Cunningham and Lee Perkins as Dean the Nailer. Comment and share your favourite lyrics. I've bought more paint and new, better brushes, and am 100% ready to start making custom patches once again! Paints and brushes have been tested on a variety of new patches for myself, and they're just waiting to meet your jacket, vest, pants, or whatever else you're patching!. Kaleida Delphine's death Download on Amazon - 99 Luftballons Play on Apple Music - 99 Luftballons Download on iTunes - 99 Luftballons Play on Spotify - 99 Luftballons Play on YouTube - 99 Luftballons. Please Note:. Op grond van het NAVO-dubbelbesluit van 1979 werd in 1983 in Duitsland begonnen met het stationeren van Pershing-II-kruisraketten. Nena - 99 Luftballons (English Translation) Lyrics. Deezer: free music streaming. 99 luftballons- kaleida (atomic blondie sountrack 2017). В песне поётся о 99 воздушных шариках, которые по ошибке приняли за НЛО, из-за чего один генерал отправил на перехват 99 лётчиков-истребителей, «каждый из которых решителен, как капитан Кирк». Hast Du etwas Zeit für mich Dann singe ich ein Lied für Dich Von 99 Luftballons Auf ihrem Weg zum Horizont. Listen and Download 99 Luftballons MP3 Download MusicPleer song, click on [DOWNLOAD] Button & select 320kbps High Quality file and download MP3 music for free on your smart phone or PC. 1 Reprises 2. Tear the Roots really is a magnificent debut. The funereal keyboards and emotive vocals remind us that pop can be political and beautiful at the same time. Ooh, we’ve gone full circle back to assassin movies – this one being so into 99 Luftballons that it not only featured Nena’s ace original, but also this version by English duo Kaleida which – speaking of assassination – goes the modern “let’s suck every possible breath of life out of it” soundtrack approach that Gary Jules. · 99 Luftballons;. Nena was also the name of the band with whom she released the 1984 English recording of her most well-known song "99 Red Balloons" (orginally released in Germany in 1983 as "99 Luftballons"). Original lyrics of 99 Luftballons song by Kaleida. Echo Saw You 3. The Domestics. Kaleida - Think (Letras y canción para escuchar) - Go ahead, take me down now / Give me what you don't know / Go ahead, take me all down now / Get this, get this into your game / / You got me in a heading drop. Nena's 1983 anti-war anthem "99 Luftballons"was wrote during in Cold War-era Germany. 1-16 of 67 results for "Kaleida" Exclude Explicit Lyrics; Digital Music Category. 18 MB , duration 3 minutes and 56 seconds and bitrate is 192 Kbps. co/SMdUpFxayT". 0 % Test CRC 3880D0C1 Copy CRC 3880D0C1. (not for release label use! company owned by Sony Corporation of America from 1991-2004; operated worldwide except in JP) (1985) (track 14). La traduction de 99 Luftballons de Nena est disponible en bas de page juste après les paroles originales. 1 Reprises 2. 99 Luftballons. 99 Luftballons ist ein Popsong der Band Nena aus dem Jahre 1983. Stream ad-free or purchase CD's and MP3s now on Amazon. 99 Luftballons - Nena 6. Listen to 99 Luftballons by Kaleida - Tear the Roots. Kaleida-99 Luftballons(Nena-Cover) 20. We have added the song to our site without lyrics so that you can listen to it and tell others what you think of it. Znajdź teksty piosenki oraz tłumaczenia piosenek i zobacz teledyski swoich ulubionych utworów. STNA - Rekonvaleszenz Lyrics | FAST DOWNLOAD. [C# G#m F# C#m E D# B D#m] Chords for Kaleida - 99 Luftballons (Atomic Blonde Soundtrack) with capo transposer, play along with guitar, piano, ukulele & mandolin. "99 Luftballons" (German: Neunundneunzig Luftballons, "99 balloons") is a song by the German band Nena from their 1983 self-titled album. Ele entendeu que ser DJ era muito mais do que trocar músicas pro povo dançar: pensava em narrativa, em construção de set, sequência e tudo mais. Nena - 99 Luftballons Lyrics & Traduction. The only three I didn't predict even as spoilers were score, visual effects and live. The song 99 Luftballons was written by Uwe Fahrenkrog-Petersen and Carlo Karges and was first released by Nena in 1983. ***And one last thing — If you love the music KALEIDA had featured on Wu Assassins, you must listen to their cover of Nena's iconic track '99 Luftballons'. In 2017, Kaleida contributed a breathy, slowed-down “99 Luftballons” to the soundtrack for “Atomic Blonde. Echo Saw You 3. Sony Music Entertainment Inc. Dann singe ich ein Lied fuer Dich D Em G A Von 99 Luftballons Auf ihrem Weg zum Horizont. La traduction de 99 Luftballons de Nena est disponible en bas de page juste après les paroles originales. Zoeken op Songteksten. Now we recommend you to Download first result Nena 99 Luftballons MP3 which is uploaded by TV80s of size 5. Hi Werner and Minny! Requester from this translation is an user who opened three different accounts with the same password, and he may be banned from the site, so this translation wouldn't be validated, but Minny would get the points anyway if the translation is good, as it is a lot of work and it would be unfair if she didn't get the points for such a big work. House Of Pulp 10. 99 Luftballons With all the concern lately about North Korea and their ambition to develop the ability to deliver a nuclear weapon via ICBM. Balloons Soar, Nena Fades "99 Luftballons" was an antiwar protest song written by the band's guitarist Carlo Karges. Home S STNA Rekonvaleszenz. Kaleida Lyrics Kurz davor Lyrics Wind in den Blättern Lyrics. 52 MB • 2K plays. Discover more than 56 million tracks, create your own playlists, and share your favourite tracks with your friends. Kaleida - 99 Luftballons (Atomic Blonde Soundtrack) Source: youtube. Kaleida-99 Luftballons(Nena-Cover) 20. 99 Luftballons mp3 high quality download at MusicEel. Or perhaps you can help us out. ) They got their first major break with a song included on the John Wick soundtrack and later had their cover of Nena's 99 Luftballons featured on the Atomic Blonde soundtrack. If the results do not contain the songs you were looking for please try to find the song by the name of the artist or by the name of the song. Kaleida - 99 Luftballons (Atomic Blonde Soundtrack) 3:56 5. Das Stück war einer der erfolgreichsten Titel der Neuen Deutschen Welle und auch international einer der erfolgreichsten Popsongs in deutscher Sprache. KALEIDA is a synth pop duo from London and the combined talents of Christina Wood (vocals, lyrics) and Cicely Goulder (keys production, lyrics). Please Note:. A song that has been a favorite since it was released way back in 1983, but I think I might like KALEIDA's version even more. Ele entendeu que ser DJ era muito mais do que trocar músicas pro povo dançar: pensava em narrativa, em construção de set, sequência e tudo mais. I Ran (So Far Away) – A Flock of Seagulls 13. DH Şarkı Yarışması It's Not Goodbye. The only three I didn't predict even as spoilers were score, visual effects and live. We have about 5 matching results to play and download. Art des Vortrags,und die Lyrics scheinen frei von jeder Ironie. Atomic Blonde (Original Motion Picture Soundtrack): Kaleida - 99 Luftballons. The Global Cycling Network puts you in the centre of the action: from the iconic climbs of Alpe D’Huez and Mont Ventoux to the cobbles of Flanders, everywhere there is road or pavé, world-class racing. Best Dance Albums 2019 MP3 & Lyrics Download. 3 Autres apparitions 3 Classements 3. Watch official video, print or download text in PDF. Greetings synthpop fans! Welcome to the Pansentient League's Top 20 Synthpop Albums of 2017. Trending Artists. If the results do not contain the songs you were looking for please try to find the song by the name of the artist or by the name of the song. Send lyrics Send translation Send music video. Nena Miscellaneous 99 Luftballons (German) Hast du etwas Zeit fuer mich Dann singe ich ein Lied fuer dich Von 99 Luftballons Auf ihrem We. Free Nena 99 Red Balloons English Official Video HD download song. 99 Luftballons lyrics Kaleida. nl is onderdeel van Jomaanro B. I can't stand the original by Nena, never could and never will - but this version is cracking - and in impeccable German. I think Florence's lyrics are much more thought-filled, though, but that doesn't take one bit from this duo's music, which is a very wonderful find. Kaleida – 99 Luftballons. Kaleida Lyrics Kurz davor Lyrics Wind in den Blättern Lyrics. CORRECTION: We lamented Theron’s relative lack of starring roles – of course, she was the sole lead in Æon Flux and Monster, the latter to great critical. Лингво-лаборатория Амальгама: перевод текста песни 99 Luftballons группы Nena Для корректной работы сайта необходимо включить Javascript в настройках браузера. Augsburgbeliever 05:12, 22 June 2013 (UTC) Support 99 Luftballons get 2200 google book hits and "99 Red Balloons" (likely incorporating the covers as well gets 4500 hits. Paroles 99 Luftballons lyrics par Nena : Hast du etwas Zeit für mich? Dann singe ich ein Lied für dich Von. Paroles du titre 99 Luftballons (Traduction) - Nena avec Paroles. James Horner - The Plaza of Execution. To start this download Lagu you need to click on [Download] Button. While Johnson’s version was a fine cover, it was Foghat’s 1976 version that was the first re-tooling of the song. If the results do not contain the songs you were looking for please try to find the song by the name of the artist or by the name of the song. Listen to 99 Luftballons by Kaleida - Tear the Roots. our partners use cookies to personalize your experience, to show you ads based on your interests, and for measurement and analytics purposes. Lyrics On Demand All lyrics are property and copyright of their respective authors, artists and labels. Kaleida - Think (Letras y canción para escuchar) - Go ahead, take me down now / Give me what you don't know / Go ahead, take me all down now / Get this, get this into your game / / You got me in a heading drop. Kaleida's album made it high on my 2017 top list, electronic. Download and listen online 99 Luftballons (Metal Version) by Leo Moracchioli. I edited this transcription for some small grammar and spelling mistakes, but there is one correction that will effect translations:. 79MB - duration: Kaleida - 99. (Industrial band HEALTH and electro-pop duo Kaleida took on New Order's "Blue Monday" and Nena's "99 Luftballons," respectively, for the 16-track collection. Widely regarded as a One-Hit-Wonder, Nena had other successes in her native German market, but nothing came close to the worldwide. 'Wood has one of those imposing voices that seems to envelop your surroundings, with Goulder's transparent production providing a subtle electronic counterpoint. English translation of lyrics for 99 Luftballons by Kaleida. The title track from the first, Think, was featured in the film John Wick. [Intro] Em B Em B Em B Em B [Verse 1] Em B Em B Well, I had me a boy, turned him into a man Em B Em B I showed him all the things that he didn't understand B7 Em B Em B Whoa, and then I let. Kaleida - 99 Luftballons (Atomic Blonde Soundtrack) Chromeo announce new album 'Head Over Heels' (youtube. Lyrics to '99 Luftballons (English Translation)' by Nena. " A slow burning atmospheric number, Wood. 99 Luftballons – Kaleida 14. Kaleida, is the electronica synthpop project of vocalist Christina Wood and Cicely Goulder (previously a studio pianist for Christine and the Queens. 0 % Test CRC 3880D0C1 Copy CRC 3880D0C1. By using our website and our services, you agree to our use of cookies as described in our Cookie Policy. Send lyrics Send translation Send music video. I Ran (So Far Away) - A Flock of Seagulls 13. Justin Bieber - Baby Arvind Ke Maya Rani Re Geeta Zaildar Mr Biggs Busted Lyrics Kaleida 99 Luftballons Atomic Blonde Soundtrack Main Nai Kalla Mere. Hast Du etwas Zeit für mich? / Singe ich ein Lied für Dich / Von 99 Luftballons / Auf ihrem Weg zum Horizont / Denkst du vielleicht grad an mich?. Kaleida’s album made it high on my 2017 top list, electronic. The song 99 Luftballons was written by Uwe Fahrenkrog-Petersen and Carlo Karges and was first released by Nena in 1983. Go ahead, you're taking me down now Give me, give me, give me, give me what you don't know Go ahead, take me all out now Get this, get this into your game You got me in a heady drop I never wanna come off You got me with your beat-up bluff I never wanna come up Think of me, I'll never break your heart Think of me, you're always in the dark I am your light, your light, your light Think of me, you're never in the dark Now that I'm making this align Let me, let me, let me, let me in the unknown. 99 Luftballons Kaleida. 20 MB , duration 3 minutes and 57 seconds and bitrate is 192 Kbps. Descargar 99 luftballon MP3 Gratis. Kaleida - Think Lyrics. Justin Bieber - Baby Arvind Ke Maya Rani Re Geeta Zaildar Mr Biggs Busted Lyrics Kaleida 99 Luftballons Atomic Blonde Soundtrack Main Nai Kalla Mere. 99 Luftballons Kaleida. In the midst of recording her debut album, Instar, Wood has dropped her first single, the entrancing "The Wall. This was one of the songs in the '80s to make a point about the brinkmanship and paranoia/hysteria surrounding the issue of war. Includes Album Cover, Release Year, and User Reviews. Songtexte von Kaleida mit deutschen Übersetzungen, Lyrics, Liedtexte und Musik-Videos kostenlos auf Songtexte. Tear The Roots by Kaleida, released 15 September 2017 1. Explain your version of song meaning, find more of Kaleida lyrics. Home S STNA Rekonvaleszenz. The Domestics. 18 MB , duration 3 minutes and 56 seconds and bitrate is 192 Kbps. I Ran (So Far Away) - A Flock of Seagulls 13. This was one of the songs in the '80s to make a point about the brinkmanship and paranoia/hysteria surrounding the issue of war. In ictu oculi's source notes that the single is primarily known for its original German recording, the English recording was secondary. Al meer dan 10 jaar songteksten van en voor jou. Hast Du etwas Zeit für mich? Singe ich ein Lied für Dich Von 99 Luftballons. ticro record new arrival list blog 新譜・中古のアナログ・レコード販売 shop チクロマーケットの本日の新入荷リストです。. Ich suche Lieder am besten bekannte/neue Lieder, die man zeichnen kann. An icon of. An icon in the shape of a person's head and shoulders. " A slow burning atmospheric number, Wood. Either way, after over a year's hiatus Kaleida returned with new single "Echo Saw You" and followed up with this cover of Nena's "99 Luftballons. 99 Luftballons by Nena except from a cassette player that's beside you as you work on an oil rig in the middle of the ocean. 99 Luftballons werd geschreven naar aanleiding van de laatste fase van de Koude Oorlog in de jaren 80 in Duitsland. Top Kaleida lyrics. ' - NME 'The production is sharp, with drama-drenched lyrics being backed up by a sinister cause. В песне поётся о 99 воздушных шариках, которые по ошибке приняли за НЛО, из-за чего один генерал отправил на перехват 99 лётчиков-истребителей, «каждый из которых решителен, как капитан Кирк». La traduction de 99 Luftballons de Nena est disponible en bas de page juste après les paroles originales. ' - INDIE SHUFFLE. 2 Apparitions 2. All The Pretty Pieces 4. Go ahead, you're taking me down now / Give me, give me, give me, give me what you don't know / Go ahead, take me all out now Discovered using Shazam, the music discovery app. I've bought more paint and new, better brushes, and am 100% ready to start making custom patches once again! Paints and brushes have been tested on a variety of new patches for myself, and they're just waiting to meet your jacket, vest, pants, or whatever else you're patching!. Atomic Blonde takes place during the last days of the Cold War, oscillating between one side of the Berlin Wall to the other. 99 Luftballons. com) with the same terrible lyrics, and it's just. Atomic Blonde Soundtrack: This thrilling and full of mystery movie was released in July 2017. Kaleida - 99 Luftballons (Atomic Blonde Soundtrack) Source: youtube. These balloons show up on the radar as unidentified objects and both. Kaleida - Tear The Roots - 2017 (320 kbps) 0. Translation of '99 Luftballons' by Nena from German to English. Zoeken op Songteksten. [C# G#m F# C#m E D# B D#m] Chords for Kaleida - 99 Luftballons (Atomic Blonde Soundtrack) with capo transposer, play along with guitar, piano, ukulele & mandolin. La traduction de 99 Luftballons de Nena est disponible en bas de page juste après les paroles originales. Mp3skull Kaleida mp3 song download in musicpleer and skull pleer on high quality 320kbps instrumental remix sons. Musicpleer The best site to download Mp3 Songs!. House Of Pulp 10. The Global Cycling Network puts you in the centre of the action: from the iconic climbs of Alpe D’Huez and Mont Ventoux to the cobbles of Flanders, everywhere there is road or pavé, world-class racing. Watch official video, print or download text in PDF. Kaleida - 99 Luftballons (Atomic Blonde Soundtrack) 3:56 5. The Lyrics for 99 Luftballons by Kaleida have been translated into 7 languages. In the midst of recording her debut album, Instar, Wood has dropped her first single, the entrancing "The Wall. I would like to find out the translation of the original German lyrics for '99 Luftballons' by Nina I DO NOT want the lyrics for the english version - 99 red balloons - as the words were changed to make them scan better in english I have the lyrics in German, but my usual translation site (babelfish) does not handle them well. Hast Du etwas Zeit für mich? / Singe ich ein Lied für Dich / Von 99 Luftballons / Auf ihrem Weg zum Horizont / Denkst du vielleicht grad an mich?. biz Músicas: Kaleida - 99 Luftballons (Atomic Blonde. DH Şarkı Yarışması It's Not Goodbye. В песне поётся о 99 воздушных шариках, которые по ошибке приняли за НЛО, из-за чего один генерал отправил на перехват 99 лётчиков-истребителей, «каждый из которых решителен, как капитан Кирк». Echo Saw You 3. An English-language version titled "99 Red Balloons", with lyrics by Kevin McAlea, was also released on the album 99 Luftballons in 1984 after widespread success of the original in Europe and Japan. London duo Kaleida released their debut album last year, and one of the tracks that got the ball rolling for this album. Kaleida - Tear The Roots • 8. [Verse 1] D Em G A Hast Du etwas Zeit für mich. Free download Burn It Down (Tom Swoon Remix) - Linkin Park (Recharged). ' - DIY 'Muted and smouldering in a way that lingers on your mind like rain on the windows. Hast Du etwas Zeit für mich? Singe ich ein Lied für Dich Von 99 Luftballons. "Goin' Down" by Scarface sampled Nena's "99 Luftballons". Nena - 99 Red Balloons. Nena - 99 Luftballons (letra en alemán y traducción al español) Supongo que será por deformación profesional por haber cursado Historia, pero el presente siempre lo analizo en función de lo ocurrido en el pasado tratando así de anticipar en lo sucedido lo que nos pueda acontecer en el futuro. Results 99 luftballons kaleida from dailymotion at herofastermp3. Available on the album 'Tear The Roots' via https://kaleida. ” Between Wood’s vocals and the absence of the funky keyboards, this was a darker “99 Luftballons,” much less quirky than the original. Stream ad-free or purchase CD's and MP3s now on Amazon. Recent Search Atomic Blonde Soundtrack Armin Van Buuren Vini Vici Great Spirit Feat. Tear the Roots really is a magnificent debut. 99 Luftballons – Nena 6. It’s 1984 and this is the best work you can get, by you’ll be damned if you couldn’t appreciate that ocean breeze. Their debut album, Tear the Roots, followed in September. In the midst of recording her debut album, Instar, Wood has dropped her first single, the entrancing "The Wall. Dann singe ich ein Lied fuer Dich D Em G A Von 99 Luftballons Auf ihrem Weg zum Horizont. 99 Luftballons. Read or print original 99 Luftballons lyrics 2019 updated! Hast du etwas Zeit fur mich dann singe ich ein Lied fur dich von 99 Luftballons. Whee! Fun with lists! I probably shouldn't say the best, I should probably say 37 of the most memorable. Sprawdź słowa piosenki 99 Luftballons Nena, zobacz teledysk. Free download Burn It Down (Tom Swoon Remix) - Linkin Park (Recharged). I Ran (So Far Away) – A Flock of Seagulls 13. David Mancuso é um fundamento da discotecagem, um dos primeiros a explorar o potencial emocional e espiritual de colocar música na pista. People love Nena's post-punk pop tune "99 Luftballons" but few are aware that it is a German anti-war protest song. La letra es una crítica a la situación política imperante durante la Guerra Fría. Coloana sonoră include Under Pressure, hitul Bowie / Mercury și un cântec Peter Schilling intitulat Major Tom. 99 Luftballons Lyrics by Kaleida on Atomic Blonde Soundtrack. Oct 19, 2019- "Music is a moral law. It’s 1984 and this is the best work you can get, by you’ll be damned if you couldn’t appreciate that ocean breeze. Atomic Blonde takes place during the last days of the Cold War, oscillating between one side of the Berlin Wall to the other. DH Şarkı Yarışması It's Not Goodbye. In the midst of recording her debut album, Instar, Wood has dropped her first single, the entrancing "The Wall. The Lyrics for 99 Luftballons by Kaleida have been translated into 7 languages. modifier 99 Luftballons (littéralement 99 ballons de baudruche) est une chanson engagée du groupe pop rock allemand Nena , interprétée par la chanteuse éponyme , numéro 1 des ventes en Allemagne de l'Ouest en 1983. Kaleida strip away all the Europop from Nena's '99 Luftballons', reducing it to the starkness of its anti-war message. All the great songs and lyrics from the "99 Luftballons" album ont he Web's largest and most authoritative lyrics resource. 'Wood has one of those imposing voices that seems to envelop your surroundings, with Goulder's transparent production providing a subtle electronic counterpoint. 99 Luftballons ist ein Popsong der Band Nena aus dem Jahre 1983. Amy Lee Grant (born November 25, 1960) is an American singer, songwriter, musician, author and media personality. House Of Pulp Coco Think 99 Luftballons Meter Free All The Pretty Pieces Echo Saw You Tear The Roots. Zoeken op Songteksten. Hast Du etwas Zeit für mich Dann singe ich ein Lied für Dich Von 99 Luftballons Auf ihrem Weg zum Horizont. Der Commissar - After the Fire 8. Greetings synthpop fans! Welcome to the Pansentient League's Top 20 Synthpop Albums of 2017. Muzyka - lata 80 i 90 udostępnił(a) link. 6 X Track quality 100. Tear The Roots is their debut album. It gives soul to the universe, wings to the mind, flight to the imagination, and charm and gaiety to life and to everything" (Plato). Play Stop Download. Convolution 2. Hast du etwas Zeit für mich? Dann singe ich ein Lied für dich Von neunundneunzig Luftballons Auf ihrem Weg zum Horizont Denkst du vielleicht grad an mich?. Sony Music Entertainment Inc. Hi Werner and Minny! Requester from this translation is an user who opened three different accounts with the same password, and he may be banned from the site, so this translation wouldn't be validated, but Minny would get the points anyway if the translation is good, as it is a lot of work and it would be unfair if she didn't get the points for such a big work. 99 Luftballons Lyrics by Kaleida on Atomic Blonde Soundtrack.